Skip to main content

Monks of Doom Live at Eagle Tavern on 2010-06-03




Disc 1 (59:50.74)
01. intro
02. Cherry Blossom Baptism
03. Riverbed
04. Jim Gore and the Ghost of Missouri
05. Trapped
06. Hieroglyphic
07. Light In The Sky
08. Going South
09. Calvary
10. The Traveler
11. The Vivian Girls
12. Chang

Disc 2 (60:34.36)
13. Unexplained Murders
14. The Harbor Incident
15. New Saigon
16. Poison
17. Hurricane Fighter Plane
18. The Better Angels Of Our Nature
19. Tanguedia (Reprise)
20. Oh Well
21. Für Immer


Collection MonksofDoom
Band/Artist Monks of Doom
Venue Eagle Tavern
Location San Francisco CA USA

Source DPA 4061 mics > Sony PCM-D50 > WAV @48/24
Lineage WAVs > Digital Performer > Audacity > xACT > FLAC
Taped by Seteeet
Transferred by morst

Notes

Opening band:
In a very special engagement, the Jack Curtis Dubowsky Ensemble and strings perform the entire Depeche Mode album Violator, start to finish, completely live, with no pre-records or sequencing. For the 20th anniversary of this auspicious album, hear it live, as you have never heard it before.

Recorded by Seteeet:
DPA 4061 mics > Sony PCM-D50 > WAV @48/24

Mics were sitting on projector (not being used) hanging from ceiling. It was 15-20 feet back from stage and it was hanging above the bar, which means there might be more people talking & bar clanking noises.

FoH sound mix by Doug Hilsinger

Transfer by morst:
WAV > Digital Performer 4 (adjust levels with volume tool & limiter, output at 44.1/16) > WAV > Audacity 1.3.12 (tracking & fades) > WAVs > xACT 1.71 > FLAC level 8 lossless encoding

SHNTOOL:
length expanded size cdr WAVE problems fmt ratio filename
0:58.59 10370012 B --- -- ---xx MoD2010-06-03d1t01.flac
7:33.30 79979804 B --- -- ---xx MoD2010-06-03d1t02.flac
3:28.45 36797084 B --- -- ---xx MoD2010-06-03d1t03.flac
4:23.65 46546124 B --- -- ---xx MoD2010-06-03d1t04.flac
4:19.71 45854636 B --- -- ---xx MoD2010-06-03d1t05.flac
4:42.59 49883612 B --- -- ---xx MoD2010-06-03d1t06.flac
6:03.34 64113212 B --- -- ---xx MoD2010-06-03d1t07.flac
6:46.71 71785436 B --- -- ---xx MoD2010-06-03d1t08.flac
6:52.41 72773276 B --- -- ---xx MoD2010-06-03d1t09.flac
6:45.25 71500844 B --- -- ---xx MoD2010-06-03d1t10.flac
3:02.59 32243612 B --- -- ---xx MoD2010-06-03d1t11.flac
4:52.40 51602924 B --- -- ---xx MoD2010-06-03d1t12.flac
4:02.56 42820556 B --- -- ---xx MoD2010-06-03d2t01.flac
7:32.08 79751660 B --- -- ---xx MoD2010-06-03d2t02.flac
9:22.57 99270908 B --- -- ---xx MoD2010-06-03d2t03.flac
6:08.35 64997564 B --- -- ---xx MoD2010-06-03d2t04.flac
9:17.58 98391260 B --- -- ---xx MoD2010-06-03d2t05.flac
3:37.53 38403500 B --- -- ---xx MoD2010-06-03d2t06.flac
2:43.27 28816748 B --- -- ---xx MoD2010-06-03d2t07.flac
3:46.02 39871148 B --- -- ---xx MoD2010-06-03d2t08.flac
14:03.40 148798532 B -b- -- ---xx MoD2010-06-03d2t09.flac
120:25.35 1274572452 B 0.5585 (21 files)

Reviews

There are no reviews yet. Be the first one to write a review.
DOWNLOAD OPTIONS
In Collection
Monks of Doom
In Collection
Live Music Archive
Uploaded by
morst
on 8/18/2010
Views
551
Favorites
1
PEOPLE ALSO FOUND
Monks of Doom
by Monks of Doom
780
1
3
( 3 reviews )
Source: Neumann KM-140 > Beyer MV100 > Sony SBM-1 > Sony D8
Monks of Doom
by Monks of Doom
2,280
1
0
Source: Stereo mic > Sony D3 > MCAS
Monks of Doom
by Monks of Doom
7,343
2
3
( 3 reviews )
Source: AUD > MD
Monks of Doom
by Monks of Doom
4,887
2
2
( 2 reviews )
Source: AUD > MD
Monks of Doom
by Monks of Doom
548
1
0
Source: DPA 4061 mics > Sony PCM-D50 > WAV @48/24
Monks of Doom
by Monks of Doom
22,147
1
3
( 3 reviews )
Source: Realistic 33-1063 omni mic > Marantz PMD430 cassette deck w/ Dolby B NR
Monks of Doom
by Monks of Doom
145
1
0
Source: DPA 4061 mics > Sony PCM-D50 > WAV @48/24
Monks of Doom
by Monks of Doom
1,370
1
0
Source: SBD?
Monks of Doom
by Monks of Doom
169
1
0
Source: DPA 4061 mics > Sony PCM-D50 > WAV @48/24
Monks of Doom
by Monks of Doom
2,809
1
1
( 1 reviews )
Source: ECM 929> D6> M EQ 230 > SV-3700 > HHB 830 30'Stage Center